Морские дьяволы. Северные рубежи / Серии: 1-4 из 20 (Александр Картохин, Максим Бриус) [2017, Боевик, военный, приключения, HDTVRip] 

Цитировать
Морские дьяволы. Северные рубежи- Год выпуска: 2017
Производство: Компания «Гамма продакшн»
Жанр: Боевик, военный, приключения
Продолжительность: 00:45:00
Субтитры: нет-Режиссёр: Александр Картохин, Максим Бриус-В ролях: Олег Чернов, Дарья Юргенс, Иван Паршин, Антон Гуляев, Александра Большакова, Антон Падерин, Антон Багров, Виталий Бисеров, Евгения Любимова, Марина Доможирова, Никита Плащевский, Антон Ветров, Юлия Скороход, Мария Русских, Александр Конев-Описание: Продолжение популярной многосерийной франшизы «Морские дьяволы» в актуализированном виде – спецподразделение выполняет непростые задачи в суровых условиях на северной границе России. Официально, спецподразделение теперь называется – «Нерпы». Сама группа набирается из профессионалов возрастом около 35 лет. Батя, Багира и Бизон выполняют в сериале командно-тактические функции, хотя иногда и оказываются на острие действия. Офицеры группы спецназа «Нерпы» стоят на страже спокойствия и порядка северных рубежей страны в приграничном портовом городе, на берегу одного их северных морей. Они борются со злом во всех его проявлениях. «Нерпы» не только охраняют Северный рубеж государства, но и охотятся за диверсантами, предателями родины, обезвреживают иностранные специальные подразделения. Герои сражаются с контрабандистами и обеспечивают безопасность важных свидетелей. Освобождают заложников, обеспечивают безопасность глубоководных экспедиций и исследований, пресекают попытки уничтожения нефтедобывающей платформы, обезвреживают врагов при попытке дискредитации круглогодичного Северного морского пути и мн. др. В общем, самые сложные, самые опасные и непредсказуемые задания – это то, чем они занимаются изо дня в день.-Все раздачи сериала / Сэмпл-Релиз группа: -Качество: HDTVRip
Формат: AVI
Видео кодек: XviD
Аудио кодек: AC3
Видео: 720x400 (16:9), 25.000 fps, XviD build 73, 1535 kb/s, 0.21 bits/pixel
Аудио: 48 kHz, AC3 Dolby Digital, 2 ch, 192 Kbps
Реклама: Нет

MI

General
Complete name : Downloads\Морские дьяволы. Северные рубежи.2017.HDTVRip.Files-x\01.Морские дьяволы. Северные рубежи.2017.HDTVRip.Files-x.avi
Format : AVI
Format/Info : Audio Video Interleave
File size : 599 MiB
Duration : 48mn 13s
Overall bit rate : 1 737 Kbps
Writing application : VirtualDubMod 1.5.10.3 | www.virtualdub-fr.org || (build 2550/release)
Writing library : VirtualDubMod build 2550/release
Video #0
ID : 0
Format : MPEG-4 Visual
Format profile : Advanced Simple@L5
Format settings, BVOP : 1
Format settings, QPel : No
Format settings, GMC : No warppoints
Format settings, Matrix : Custom
Codec ID : XVID
Codec ID/Hint : XviD
Duration : 48mn 13s
Bit rate : 1 535 Kbps
Width : 720 pixels
Height : 400 pixels
Display aspect ratio : 16:9
Frame rate : 25.000 fps
Color space : YUV
Chroma subsampling : 4:2:0
Bit depth : 8 bits
Scan type : Progressive
Compression mode : Lossy
Bits/(Pixel*Frame) : 0.213
Stream size : 530 MiB (88%)
Writing library : XviD 73
Audio #1
ID : 1
Format : AC-3
Format/Info : Audio Coding 3
Mode extension : CM (complete main)
Format settings, Endianness : Big
Codec ID : 2000
Duration : 48mn 13s
Bit rate mode : Constant
Bit rate : 192 Kbps
Channel(s) : 2 channels
Channel positions : Front: L R
Sampling rate : 48.0 KHz
Bit depth : 16 bits
Compression mode : Lossy
Stream size : 66.2 MiB (11%)
Alignment : Split accross interleaves
Interleave, duration : 40 ms (1.00 video frame)
Interleave, preload duration : 500 ms

Скриншоты

Внимание! Раздача ведётся путём добавления новых серий:

(1) остановить скачивание,
(2) удалить старый торрент у себя из клиента (старые серии удалять не надо),
(3) скачать новый торрент и запустить его у себя в клиенте вместо старого, при этом указать клиенту путь в старую папку куда и должно происходить скачивание новых серий.
Ваш клиент при этом должен произвести хеширование (проверку) старой папки (если не производит сам - помогите ему сделать это), и будет докачивать только те серии которых у вас ещё нет. Старые серии при этом не удаляются, а продолжают раздаваться!
Eсли вы уже удалили старые серии, то предотвратить повторную закачку старых серий можно, отжав галочку в соответсвующих местах при запуске нового торрента. По возможности, желательно не удалять старые серии как можно дольше чтобы релизёр не столько продолжал раздавать старые серии, а смог сконцентрироваться на новых
.
Вы не можете начинать темы
Вы не можете отвечать на сообщения
Вы не можете редактировать свои сообщения
Вы не можете удалять свои сообщения
Вы не можете голосовать в опросах
Вы не можете прикреплять файлы к сообщениям
Вы можете скачивать файлы
!ВНИМАНИЕ!

Сайт не предоставляет электронные версии произведений, а занимается лишь коллекционированием и каталогизацией ссылок, присылаемых и публикуемых на форуме нашими читателями. Если вы являетесь правообладателем какого-либо представленного материала и не желаете, чтобы ссылка на него находилась в нашем каталоге, свяжитесь с нами, и мы незамедлительно удалим ее. Файлы для обмена на трекере предоставлены пользователями сайта, и администрация не несет ответственности за их содержание. Просьба не заливать файлы, защищенные авторскими правами, а также файлы нелегального содержания!

Искали программы, игры, дополнения, музыка mp3, аниме, аудио книги, журналы? Добро пожаловать на свободный торрент трекер Torrents, у нас можно скачать бесплатно, без смс и регистрации и прочих ограничений лучшие, отборные сборки программ, игр. Скачать торрентом не составит труда даже не опытному пользователю. Раздачи ежедневно обновляются, только лучшие и качественные раздачи, подробные описания и скриншоты. Огромная коллекция программ для работы со звуком, графикой, дизайном, а так же множество плагинов и инструментов к ним с подробной инструкцией и рекомендациями. Прошивки для навигаторов, карты. Разнообразные игры, для Windows, Linux. В коллекцие есть и старые игры любых жанров, Rpg, Action, Shooter, strategy Множество дополнений, модификаций, сценариев для популярных игр в жанре экш, рпг, гонки, стратегии, логические игры. Множество аддонов и сценариев для Microsoft Flight Simulator Большая коллекция книг, учебников. Если нет возможности купить печатное издание - смело скачивайте цифровую версию книги или, быть может, журнала. Не любите читать - можно загрузить бесплатно аудикнигу. Для веб дизайнеров и программистов так же найдется множество специализированного софта, таких как: редакторы с подсветкой, среды программирования, компоненты, системы управления базами данных, разнообразные скрипты и шаблоны. Не так давно у нас появился материал для автолюбителей и владельцев мото - оригинальные и неоригинальные каталоги запчастей, книги и журналы по ремонту и обслуживанию, видеоуроки, статьи по чип тюнингу, прошивкам. Процедура получения контента элементарная, достаточно просто скачать торрент файл и добавить его в загрузку в вашем торрент клиенте. Если у вас нет специального торрент клиента, вы можете его скачать у нас.