Морские дьяволы. Смерч-2 / Сезон 2 / Серии: 33-64 из 64 (Сергей Винокуров, Евгений Малков, Александра Бутько, Наталия Бучнева, Александр Картохин, Вадим Кауров, Сергей Раевский, Сергей Васильев) [2013-2014, Криминал, приключения, DVB] 

Цитировать
Морские дьяволы. Смерч-2
Год выпуска: 2013-2014
Производство: ООО "Гамма-продакшн"
Жанр: Криминал, приключения
Продолжительность: 00:45:00
Субтитры: нет
Режиссёр: Сергей Винокуров, Евгений Малков, Александра Бутько, Наталия Бучнева, Александр Картохин, Вадим Кауров, Сергей Раевский, Сергей Васильев
В ролях: Олег Чернов, Дарья Юргенс, Иван Паршин, Антон Гуляев, Владимир Ярош, Дарья Циберкина, Снежана Прудько, Игорь Григорьев, Виктор Смирнов, Олег Андреев, Семён Морозов, Игорь Лепихин, Михаил Черняк, Андрей Дежонов, Елена Радевич, Наталья Ткаченко, Валерий Дегтярь, Вадим Сквирский, Юрий Архангельский, Сергей Дьячков, Джулиано Ди Капуа, Евгений Сиротин, Олег Морозов, Вадим Парфёнов, Александр Маковский, Александр Ронис, Алексей Парасевич, Константин Клюквин, Юрий Елагин, Глеб Щур, Игорь Михайлов, Алексей Красноцветов, Александр Овчинников, Артем Шилов, Оксана Сырцова, Инна Ярмошук, Ирина Ворон, Александр Сергеев, Юрий Ковалёв, Андрей Соломыков, Вячеслав Аркунов, Александр Глебов, Жанна Куприянова, Дмитрий Белов, Александр Загребин
Описание: Продолжение проекта "Морские дьяволы. Смерч" - о бойцах спецподразделения "Смерч".
Все раздачи сериала:Морские дьяволы. Смерч-2

Качество: DVB
Формат: MPEG-TS
Видео кодек: H.264
Аудио кодек: MPEG Audio
Видео: H.264 AVC 1024х576 @ 720x576 (16:9) 25.00fps ~2529 Kbps (0.244 bit/pixel)
Аудио: MP2 48000Hz 2 channels 192 Кбит/сек
Сторонней рекламы нет!

MI

ОбщееИдентификатор                    : 1 (0x1)Полное имя                       : F:\Морские дьяволы. Смерч 2 SATRip DVB (33-64)\Морские дьяволы. Смерч 2 33_серия_DVB_by_Wowa63_&_Серый1779.tsФормат                           : MPEG-TSРазмер файла                     : 910 МбайтПродолжительность                : 44 м.Общий поток                      : 2864 Кбит/сек
ВидеоИдентификатор : 67 (0x43)Идентификатор меню : 1 (0x1)Формат : AVCФормат/Информация : Advanced Video CodecПрофиль формата : High@L4.1Параметр CABAC формата : ДаПараметр ReFrames формата : 3 кадраИдентификатор кодека : 27Продолжительность : 44 м.Битрейт : 2529 Кбит/секШирина : 720 пикс.Высота : 576 пикс.Соотношение сторон : 16:9Частота кадров : 25,000 кадр/секСтандарт вещания : PALЦветовое пространство : YUVПодвыборка цветности : 4:2:0Битовая глубина : 8 битТип развёртки : ПрогрессивнаяБит/(Пиксели*Кадры) : 0.244Размер потока : 803 Мбайт (88%)
АудиоИдентификатор : 68 (0x44)Идентификатор меню : 1 (0x1)Формат : MPEG AudioВерсия формата : Version 1Профиль формата : Layer 2Идентификатор кодека : 3Продолжительность : 44 м.Вид битрейта : ПостоянныйБитрейт : 192 Кбит/секКаналы : 2 каналаЧастота : 48,0 КГцМетод сжатия : С потерямиРазмер потока : 61,0 Мбайт (7%)Язык : English
Запись:
Монтаж и оформление:
Раздача группы:

Внимание ! Раздача ведётся путём добавления новых серий

Внимание! Раздача ведётся путём добавления новых серий; при каждом добавлении создётся новый торрент. Чтобы начать докачку новой серии, пользователям необходимо сделать следующее:
(1) остановить скачивание,
(2) удалить старый торрент у себя из клиента (старые серии удалять не надо),
(3) скачать новый торрент и запустить его у себя в клиенте вместо старого, при этом указать клиенту путь в старую папку куда и должно происходить скачивание новых серий.
Ваш клиент при этом должен произвести хеширование (проверку) старой папки (если не производит сам - помогите ему сделать это), и будет докачивать только те серии которых у вас ещё нет. Старые серии при этом не удаляются, а продолжают раздаваться!
Eсли вы уже удалили старые серии, то предотвратить повторную закачку старых серий можно, отжав галочку в соответсвующих местах при запуске нового торрента. По возможности, желательно не удалять старые серии как можно дольше чтобы релизёр не столько продолжал раздавать старые серии, а смог сконцентрироваться на новых.
ВНИМАНИЕ! ТОРРЕНТ ПЕРЕЗАЛИТ! ДОБАВЛЕНА 63-ая - 64-ая СЕРИИ!

Скриншоты

Вы не можете начинать темы
Вы не можете отвечать на сообщения
Вы не можете редактировать свои сообщения
Вы не можете удалять свои сообщения
Вы не можете голосовать в опросах
Вы не можете прикреплять файлы к сообщениям
Вы можете скачивать файлы
!ВНИМАНИЕ!

Сайт не предоставляет электронные версии произведений, а занимается лишь коллекционированием и каталогизацией ссылок, присылаемых и публикуемых на форуме нашими читателями. Если вы являетесь правообладателем какого-либо представленного материала и не желаете, чтобы ссылка на него находилась в нашем каталоге, свяжитесь с нами, и мы незамедлительно удалим ее. Файлы для обмена на трекере предоставлены пользователями сайта, и администрация не несет ответственности за их содержание. Просьба не заливать файлы, защищенные авторскими правами, а также файлы нелегального содержания!

Искали программы, игры, дополнения, музыка mp3, аниме, аудио книги, журналы? Добро пожаловать на свободный торрент трекер Torrents, у нас можно скачать бесплатно, без смс и регистрации и прочих ограничений лучшие, отборные сборки программ, игр. Скачать торрентом не составит труда даже не опытному пользователю. Раздачи ежедневно обновляются, только лучшие и качественные раздачи, подробные описания и скриншоты. Огромная коллекция программ для работы со звуком, графикой, дизайном, а так же множество плагинов и инструментов к ним с подробной инструкцией и рекомендациями. Прошивки для навигаторов, карты. Разнообразные игры, для Windows, Linux. В коллекцие есть и старые игры любых жанров, Rpg, Action, Shooter, strategy Множество дополнений, модификаций, сценариев для популярных игр в жанре экш, рпг, гонки, стратегии, логические игры. Множество аддонов и сценариев для Microsoft Flight Simulator Большая коллекция книг, учебников. Если нет возможности купить печатное издание - смело скачивайте цифровую версию книги или, быть может, журнала. Не любите читать - можно загрузить бесплатно аудикнигу. Для веб дизайнеров и программистов так же найдется множество специализированного софта, таких как: редакторы с подсветкой, среды программирования, компоненты, системы управления базами данных, разнообразные скрипты и шаблоны. Не так давно у нас появился материал для автолюбителей и владельцев мото - оригинальные и неоригинальные каталоги запчастей, книги и журналы по ремонту и обслуживанию, видеоуроки, статьи по чип тюнингу, прошивкам. Процедура получения контента элементарная, достаточно просто скачать торрент файл и добавить его в загрузку в вашем торрент клиенте. Если у вас нет специального торрент клиента, вы можете его скачать у нас.